<?xml version="1.0" standalone="no"?>
<!DOCTYPE svg PUBLIC "-//W3C//DTD SVG 1.1//EN" "http://www.w3.org/Graphics/SVG/1.1/DTD/svg11.dtd" >
<svg xmlns="http://www.w3.org/2000/svg">
<metadata>
This is a custom SVG webfont generated by Font Squirrel.
Designer    : Adrian Frutiger
Foundry URL : httpwwwadobecomtype
</metadata>
<defs>
<font id="webfontOKGi6C5r" horiz-adv-x="1251" >
<font-face units-per-em="2048" ascent="1536" descent="-512" />
<missing-glyph horiz-adv-x="626" />
<glyph unicode=" "  horiz-adv-x="626" />
<glyph unicode="&#x09;" horiz-adv-x="626" />
<glyph unicode="&#xa0;" horiz-adv-x="626" />
<glyph unicode="!" horiz-adv-x="909" d="M264 1430h381l-53 -945h-275zM283 0v332h344v-332h-344z" />
<glyph unicode="&#x22;" d="M291 874v556h270v-556h-270zM690 874v556h271v-556h-271z" />
<glyph unicode="#" horiz-adv-x="1253" d="M119 383v221h203l30 225h-172v222h203l53 379h217l-53 -379h178l51 379h215l-51 -379h142v-222h-172l-31 -225h141v-221h-172l-53 -383h-215l53 383h-178l-53 -383h-217l53 383h-172zM539 604h178l31 225h-179z" />
<glyph unicode="$" horiz-adv-x="1253" d="M78 1024q0 207 137 313.5t356 116.5v174h123v-174q246 0 379 -63l-24 -277q-168 82 -355 82v-309q90 -20 151.5 -40t129 -55.5t108.5 -82.5t68 -121t27 -170q0 -143 -77 -245.5t-188.5 -149t-244.5 -48.5v-176h-123v176q-104 0 -229.5 15.5t-184.5 38.5l27 290 q182 -74 387 -73v346q-193 29 -330 139.5t-137 292.5zM410 1057q0 -63 46 -100t115 -46v285q-70 -4 -115.5 -43t-45.5 -96zM668 246q178 16 178 176q0 121 -178 151v-327z" />
<glyph unicode="%" horiz-adv-x="2048" d="M98 1030q0 193 85 308.5t273.5 115.5t273.5 -115.5t85 -308.5q0 -424 -358.5 -424t-358.5 424zM356 1030q0 -53 2 -84t10.5 -73t31 -62t57.5 -20t57.5 20t30.5 62t10 73t2 84t-2 83t-10 73t-30.5 63.5t-57.5 20.5t-57.5 -20.5t-31 -63.5t-10.5 -73t-2 -83zM518 -45 l782 1520h224l-781 -1520h-225zM1233 399q0 193 85 308.5t273.5 115.5t273.5 -115.5t85 -308.5q0 -424 -358.5 -424t-358.5 424zM1491 399.5q0 -53.5 2 -84t10 -72.5t30.5 -62.5t57.5 -20.5t57.5 20.5t31 62.5t10.5 72.5t2 84t-2 83t-10.5 72.5t-31 63.5t-57.5 20.5 t-57.5 -20.5t-30.5 -63.5t-10 -72.5t-2 -83z" />
<glyph unicode="&#x26;" horiz-adv-x="1593" d="M90 410q0 143 70.5 233t210.5 156q-172 135 -172 313q0 119 73.5 199t177 111.5t224.5 31.5q213 0 354 -84t141 -268q0 -63 -23.5 -117.5t-75.5 -99.5t-93 -73t-115 -71l246 -227q86 94 94 258h332q-12 -287 -219 -489l254 -283h-408q-57 78 -86 109q-154 -133 -444 -134 q-141 0 -261 45.5t-200 147t-80 242.5zM438 418q0 -88 68.5 -142.5t161.5 -54.5q113 0 217 78q-125 137 -318 315q-66 -35 -97.5 -79.5t-31.5 -116.5zM526 1094q0 -84 138 -193q55 33 80.5 49.5t59.5 58.5t34 85q0 61 -45 94t-115 33q-66 0 -109 -37t-43 -90z" />
<glyph unicode="'" horiz-adv-x="681" d="M207 874v556h270v-556h-270z" />
<glyph unicode="(" horiz-adv-x="796" d="M141 631q0 446 326 917h301q-295 -461 -295 -917q0 -442 281 -918h-291q-322 433 -322 918z" />
<glyph unicode=")" horiz-adv-x="796" d="M29 -287q295 463 295 918q0 459 -295 917h301q326 -424 325 -917q0 -451 -325 -918h-301z" />
<glyph unicode="*" d="M197 1028l77 238l273 -136l-43 300h250l-41 -295l266 131l76 -240l-295 -51l209 -211l-207 -150l-137 265l-148 -263l-201 146l211 211z" />
<glyph unicode="+" horiz-adv-x="1228" d="M96 389v258h389v389h258v-389h390v-258h-390v-389h-258v389h-389z" />
<glyph unicode="," horiz-adv-x="626" d="M4 -223l137 555h344l-200 -555h-281z" />
<glyph unicode="-" horiz-adv-x="681" d="M63 416v270h555v-270h-555z" />
<glyph unicode="." horiz-adv-x="626" d="M141 0v332h344v-332h-344z" />
<glyph unicode="/" horiz-adv-x="569" d="M-43 -25l397 1479h258l-397 -1479h-258z" />
<glyph unicode="0" horiz-adv-x="1253" d="M72 715q0 123 12 221t48 198.5t95.5 167t160.5 109.5t238.5 43t239 -43t160.5 -109.5t95 -167t48.5 -198.5t12.5 -221t-12.5 -221.5t-48.5 -198.5t-95 -167t-160.5 -110t-239 -43t-238.5 43t-160.5 110t-95.5 167t-48 198.5t-12 221.5zM440 714.5q0 -102.5 5.5 -174 t22.5 -149.5t57 -118t101.5 -40t101.5 40t57.5 118t22.5 149.5t5 174t-5 174.5t-22.5 149.5t-57.5 117.5t-101.5 40t-101.5 -40t-57 -117.5t-22.5 -149.5t-5.5 -174.5z" />
<glyph unicode="1" horiz-adv-x="1253" d="M133 1114l485 316h336v-1430h-381v1049l-270 -193z" />
<glyph unicode="2" horiz-adv-x="1253" d="M86 0v272q324 281 418 377q209 215 209 342q0 90 -55.5 135t-147.5 45q-90 0 -198.5 -29.5t-176.5 -68.5l-14 297q233 84 424 84q250 0 399.5 -106.5t149.5 -313.5q0 -299 -437 -676l-102 -88h565v-270h-1034z" />
<glyph unicode="3" horiz-adv-x="1253" d="M86 25l18 301q117 -68 355 -68q68 0 127 13.5t110.5 57.5t51.5 111q0 164 -261 164q-70 0 -159 -4v254q43 -4 164 -4q82 0 157.5 40t75.5 118q0 164 -246 163q-205 0 -332 -57l-18 281q201 59 416 59q109 0 202 -18.5t177 -59.5t133 -121.5t49 -191.5q0 -119 -69.5 -200 t-192.5 -113v-5q133 -27 208.5 -110.5t75.5 -214.5q0 -102 -38.5 -181t-100 -128.5t-145.5 -80t-167 -43t-173 -12.5q-281 1 -418 50z" />
<glyph unicode="4" horiz-adv-x="1253" d="M16 272v303l574 855h422v-900h202v-258h-202v-272h-357v272h-639zM287 530h393v605h-4z" />
<glyph unicode="5" horiz-adv-x="1253" d="M139 27l6 309q158 -78 349 -78q123 0 205.5 52t82.5 177q0 76 -49 125.5t-116.5 66.5t-151.5 17q-178 0 -311 -34l10 768h932v-259h-604v-237q106 8 112 8q238 0 392.5 -109.5t154.5 -332.5q0 -143 -52 -249t-143.5 -164t-199 -85t-234.5 -27q-174 1 -383 52z" />
<glyph unicode="6" horiz-adv-x="1253" d="M84 653q0 172 33 311.5t104.5 252t196.5 175t297 62.5q205 0 370 -65l-22 -281q-113 76 -301 76q-180 0 -256 -108.5t-78 -311.5h4q102 145 309 145q193 0 310.5 -127t117.5 -323q0 -201 -151.5 -342.5t-384.5 -141.5q-147 0 -257 54.5t-171.5 152t-91 214t-29.5 257.5z M444 440q0 -92 49.5 -155.5t137.5 -63.5q86 0 134 58.5t48 144.5q0 98 -44 162.5t-138 64.5q-88 0 -137.5 -61.5t-49.5 -149.5z" />
<glyph unicode="7" horiz-adv-x="1253" d="M102 1159v271h1028v-310l-512 -1120h-409l532 1159h-639z" />
<glyph unicode="8" horiz-adv-x="1253" d="M68 383q0 270 282 352v2q-104 35 -175 119t-71 186q0 213 151 312.5t386 99.5q223 0 357.5 -92t134.5 -275q0 -123 -67 -205.5t-169 -121.5v-4q135 -43 212 -123t77 -230q0 -217 -159 -322.5t-402 -105.5q-248 0 -402.5 99.5t-154.5 308.5zM436 412q0 -76 54.5 -127.5 t130.5 -51.5q84 0 140 50.5t56 134.5q0 143 -215 207q-166 -78 -166 -213zM449 1040q0 -51 29.5 -90t60 -55t88.5 -43q84 47 122.5 92t38.5 113q0 72 -51 111.5t-120.5 39.5t-118.5 -48t-49 -120z" />
<glyph unicode="9" horiz-adv-x="1253" d="M84 971q0 201 151.5 342t385.5 141q147 0 256.5 -54t171 -151.5t91 -214t29.5 -258.5q0 -172 -32.5 -311t-104 -252t-196.5 -175.5t-297 -62.5q-205 0 -371 66l22 281q113 -76 302 -76q180 0 255.5 108.5t77.5 311.5h-4q-102 -145 -309 -146q-193 0 -310.5 127 t-117.5 324zM440 1006q0 -98 44 -163t139 -65q88 0 137 61.5t49 149.5q0 92 -49 155.5t-137 63.5q-86 0 -134.5 -58t-48.5 -144z" />
<glyph unicode=":" horiz-adv-x="626" d="M141 0v332h344v-332h-344zM141 735v332h344v-332h-344z" />
<glyph unicode=";" horiz-adv-x="626" d="M4 -223l137 555h344l-200 -555h-281zM141 735v332h344v-332h-344z" />
<glyph unicode="&#x3c;" horiz-adv-x="1228" d="M96 410v217l1037 426v-250l-699 -285l699 -285v-249z" />
<glyph unicode="=" horiz-adv-x="1228" d="M96 154v258h1037v-258h-1037zM96 625v258h1037v-258h-1037z" />
<glyph unicode="&#x3e;" horiz-adv-x="1228" d="M96 -16v249l699 285l-699 285v250l1037 -426v-217z" />
<glyph unicode="?" horiz-adv-x="1138" d="M133 1395q193 59 430 59q123 0 229.5 -30.5t185.5 -111.5t79 -202q0 -78 -32 -144.5t-79 -118.5l-95 -103q-48 -50 -85 -117.5t-43 -141.5h-299q0 72 27.5 139.5t66.5 116.5l77 97q38 47 65.5 98t27.5 100q0 72 -69.5 110t-155.5 38q-172 0 -322 -76zM401 0v332h344v-332 h-344z" />
<glyph unicode="@" horiz-adv-x="1638" d="M76 715q0 317 220 528t560 211q295 0 501 -166t206 -432q0 -129 -44 -232.5t-106.5 -165t-138.5 -102.5t-134.5 -56t-99.5 -15q-43 0 -72.5 25.5t-31.5 74.5h-4q-90 -100 -207 -100q-129 0 -222 112.5t-93 282.5q0 166 109.5 289t279.5 123q162 0 245 -117l19 96h192 l-69 -428q-20 -106 -21 -113q0 -39 27 -38q66 0 119 76.5t55 224.5q2 225 -128 344.5t-398 119.5q-238 0 -384.5 -153.5t-146.5 -392.5q0 -256 151.5 -397.5t403.5 -141.5q236 0 391 109h209q-221 -305 -596 -306q-338 0 -565 209t-227 531zM631 678q0 -86 45 -141.5 t127 -55.5q88 0 139 62.5t51 161.5q0 84 -47 137t-123 53q-86 0 -139 -65.5t-53 -151.5z" />
<glyph unicode="A" horiz-adv-x="1593" d="M16 0l543 1430h467l551 -1430h-418l-106 305h-537l-113 -305h-387zM604 575h359l-170 560h-5z" />
<glyph unicode="B" horiz-adv-x="1366" d="M123 0v1430h657q209 0 337 -92.5t128 -270.5q0 -250 -252 -334v-4q289 -59 289 -315q0 -123 -49 -208t-135 -128t-176.5 -60.5t-196.5 -17.5h-602zM504 270h112q59 0 104.5 6.5t89.5 22.5t67.5 51t23.5 86q0 55 -23.5 92t-68.5 52.5t-87 20.5t-101 5h-117v-336zM504 864 h106q254 0 254 152q0 61 -39 95t-87 41t-124 7h-110v-295z" />
<glyph unicode="C" horiz-adv-x="1366" d="M80 709q0 360 226 552.5t593 192.5q176 0 424 -74l-31 -309q-182 100 -372 100q-201 0 -324 -130t-123 -332q0 -207 132 -329t345 -122q168 0 357 74l18 -299q-233 -57 -424 -58q-119 0 -231.5 24t-221 79t-189.5 138t-130 210t-49 283z" />
<glyph unicode="D" horiz-adv-x="1593" d="M133 0v1430h520q197 0 344.5 -34t264 -113t177 -219t60.5 -343q0 -195 -62.5 -337t-179 -225t-265 -121t-339.5 -38h-520zM514 283h148q215 0 329.5 109.5t114.5 322.5q0 211 -117 321.5t-327 110.5h-148v-864z" />
<glyph unicode="E" d="M123 0v1430h1007v-271h-626v-295h592v-270h-592v-324h649v-270h-1030z" />
<glyph unicode="F" horiz-adv-x="1138" d="M123 0v1430h956v-271h-575v-313h551v-271h-551v-575h-381z" />
<glyph unicode="G" horiz-adv-x="1593" d="M80 709q0 385 242.5 565t660.5 180q266 0 432 -63l-31 -312q-158 92 -348 92q-162 0 -284.5 -44t-200.5 -151.5t-78 -266.5q0 -207 132 -329t345 -122q82 0 135 25v282h-223v271h592v-795q-258 -66 -553 -66q-119 0 -231.5 24t-221 79t-189.5 138t-130 210t-49 283z" />
<glyph unicode="H" horiz-adv-x="1478" d="M133 0v1430h381v-547h451v547h381v-1430h-381v612h-451v-612h-381z" />
<glyph unicode="I" horiz-adv-x="684" d="M152 0v1430h380v-1430h-380z" />
<glyph unicode="J" horiz-adv-x="909" d="M29 14v316q74 -35 172 -35q195 0 194 313v822h381v-936q0 -248 -117.5 -383.5t-394.5 -135.5q-79 0 -235 39z" />
<glyph unicode="K" horiz-adv-x="1478" d="M133 0v1430h381v-584h4l430 584h459l-528 -666l569 -764h-485l-445 649h-4v-649h-381z" />
<glyph unicode="L" horiz-adv-x="1138" d="M133 0v1430h381v-1147h590v-283h-971z" />
<glyph unicode="M" horiz-adv-x="2048" d="M123 0v1430h600l303 -951h4l318 951h577v-1430h-373l7 1098h-5l-364 -1098h-350l-348 1098h-5l9 -1098h-373z" />
<glyph unicode="N" horiz-adv-x="1593" d="M139 0v1430h486l483 -971h4l-6 971h348v-1430h-473l-500 977h-4l12 -977h-350z" />
<glyph unicode="O" horiz-adv-x="1593" d="M80 715q0 348 184.5 543.5t532.5 195.5t532 -195.5t184 -543.5q0 -346 -185 -543t-531 -197t-531.5 197t-185.5 543zM473 715q0 -195 81 -326t242.5 -131t242.5 131t81 326q0 201 -79.5 328.5t-243.5 127.5t-244 -127.5t-80 -328.5z" />
<glyph unicode="P" d="M113 0v1430h454q328 0 484.5 -114t156.5 -355q0 -217 -150.5 -339t-416.5 -122h-147v-500h-381zM494 770h98q236 0 235 197q0 193 -235 192h-98v-389z" />
<glyph unicode="Q" horiz-adv-x="1593" d="M80 715q0 348 184.5 543.5t532.5 195.5t532 -195.5t184 -543.5q0 -244 -93 -416t-271 -252l338 -317h-430l-240 245h-20q-346 0 -531.5 197t-185.5 543zM473 715q0 -195 81 -326t242.5 -131t242.5 131t81 326q0 201 -79.5 328.5t-243.5 127.5t-244 -127.5t-80 -328.5z " />
<glyph unicode="R" horiz-adv-x="1366" d="M123 0v1430h680q203 0 332 -92.5t129 -268.5q0 -297 -275 -360v-4q35 -10 60.5 -28t44 -50.5t30 -59t32 -84t36.5 -94.5l139 -389h-397l-82 258q-59 186 -111.5 246.5t-156.5 60.5h-80v-565h-381zM504 836h100q61 0 98 4t85.5 18t72 50t23.5 93q0 63 -42 99.5t-98.5 47.5 t-138.5 11h-100v-323z" />
<glyph unicode="S" d="M90 1016q0 100 38 178t98.5 126t144.5 79t167 43t175 12q213 0 368 -53l-24 -295q-143 66 -318 65q-256 0 -256 -133q0 -53 50.5 -89t125 -52t162.5 -48t163 -71t125 -125t50 -207q0 -109 -36 -191.5t-94 -134.5t-141 -85t-170 -46.5t-188 -13.5q-236 0 -426 62l33 315 q174 -94 393 -94q236 0 236 139q0 61 -50 102.5t-125 61t-163 51t-163 71.5t-125 125t-50 208z" />
<glyph unicode="T" horiz-adv-x="1138" d="M27 1147v283h1085v-283h-352v-1147h-381v1147h-352z" />
<glyph unicode="U" horiz-adv-x="1478" d="M113 543v887h381v-824q0 -348 245.5 -348t245.5 348v824h381v-887q0 -285 -168 -426.5t-458.5 -141.5t-458.5 141.5t-168 426.5z" />
<glyph unicode="V" horiz-adv-x="1478" d="M20 1430h406l317 -1123h5l319 1123h391l-487 -1430h-471z" />
<glyph unicode="W" horiz-adv-x="2048" d="M16 1430h390l184 -1098h4l192 1098h484l200 -1098h5l186 1098h371l-320 -1430h-489l-203 1098h-4l-189 -1098h-493z" />
<glyph unicode="X" horiz-adv-x="1478" d="M20 0l463 752l-413 678h444l240 -472l245 472h418l-418 -678l459 -752h-454l-277 526l-274 -526h-433z" />
<glyph unicode="Y" horiz-adv-x="1478" d="M23 1430h438l280 -574l277 574h438l-524 -891v-539h-381v539z" />
<glyph unicode="Z" d="M53 0v303l680 844h-661v283h1095v-304l-700 -843h704v-283h-1118z" />
<glyph unicode="[" horiz-adv-x="796" d="M180 -287v1835h541v-233h-234v-1368h234v-234h-541z" />
<glyph unicode="\" horiz-adv-x="569" d="M-43 1454h258l397 -1479h-258z" />
<glyph unicode="]" horiz-adv-x="796" d="M76 -53h233v1368h-233v233h540v-1835h-540v234z" />
<glyph unicode="^" horiz-adv-x="1228" d="M143 682l357 748h229l356 -748h-249l-222 465l-221 -465h-250z" />
<glyph unicode="_" horiz-adv-x="1024" d="M0 -154h1024v-102h-1024v102z" />
<glyph unicode="`" horiz-adv-x="681" d="M-18 1493h383l139 -295h-258z" />
<glyph unicode="a" d="M63 311q0 92 40 162t96.5 107.5t137.5 60.5t144.5 29t132.5 6q90 0 172 -14q-2 184 -243 184q-197 0 -340 -80l-6 250q186 76 426 76q225 0 366 -106.5t141 -336.5v-397q0 -147 21 -252h-338q0 20 -4 78.5t-4 89.5h-4q-121 -193 -338 -193q-170 0 -285 86t-115 250z M408 338q0 -53 43 -85t108 -32q100 0 163.5 77t63.5 175q-141 6 -155 6q-223 0 -223 -141z" />
<glyph unicode="b" horiz-adv-x="1368" d="M106 0v1536h371v-606h4q129 162 367 162q209 0 333 -164t124 -375q0 -248 -129 -413t-359 -165q-125 0 -227.5 62.5t-138.5 152.5h-5v-190h-340zM475 530q0 -115 65.5 -193.5t159.5 -78.5q102 0 163 79t61 208q0 111 -59.5 187.5t-164.5 76.5q-100 0 -162.5 -79 t-62.5 -200z" />
<glyph unicode="c" horiz-adv-x="1024" d="M63 532q0 260 174.5 410t446.5 150q172 0 293 -60l-27 -270q-98 59 -223 59q-123 0 -203 -79.5t-80 -215.5q0 -123 89.5 -201.5t214.5 -78.5q133 0 229 51l8 -274q-141 -47 -301 -48q-272 0 -446.5 149.5t-174.5 407.5z" />
<glyph unicode="d" horiz-adv-x="1368" d="M63 553q0 213 124 376t333 163q242 0 367 -162h4v606h371v-1536h-340v190h-4q-37 -90 -139.5 -152.5t-227.5 -62.5q-229 0 -358.5 165t-129.5 413zM444 545q0 -129 60.5 -208t163.5 -79q94 0 159.5 79t65.5 193q0 123 -62.5 201t-162.5 78q-104 0 -164 -76.5t-60 -187.5z " />
<glyph unicode="e" d="M63 535q0 260 159 408.5t413 148.5q143 0 249.5 -48.5t168 -133.5t91.5 -188.5t30 -227.5v-68h-738q29 -205 314 -205q174 0 325 82v-260q-170 -68 -391 -68q-270 0 -445.5 151t-175.5 409zM432 635h410q0 100 -50.5 161.5t-154.5 61.5q-94 0 -146.5 -62.5t-58.5 -160.5z " />
<glyph unicode="f" horiz-adv-x="909" d="M27 809v258h223v66q0 231 108.5 329.5t335.5 98.5q72 0 189 -21l-23 -254q-49 16 -117 17q-131 0 -131 -170v-66h262v-258h-262v-809h-368v809h-217z" />
<glyph unicode="g" horiz-adv-x="1368" d="M63 537q0 250 121 402.5t361 152.5q233 0 362 -218h4v193h334v-942q0 -319 -154.5 -449.5t-488.5 -130.5q-219 0 -407 68l18 291q180 -88 360 -88q328 0 328 309v57h-4q-129 -182 -358 -182q-217 0 -346.5 148.5t-129.5 388.5zM444 543q0 -119 60.5 -189.5t148.5 -70.5 q100 0 168 76.5t68 197.5q0 100 -60.5 176t-175.5 76q-98 0 -153.5 -75.5t-55.5 -190.5z" />
<glyph unicode="h" horiz-adv-x="1366" d="M115 0v1536h368v-627h4q131 182 357 183q205 0 306 -122t101 -304v-666h-368v516q0 268 -170 268q-229 0 -230 -333v-451h-368z" />
<glyph unicode="i" horiz-adv-x="684" d="M158 0v1067h368v-1067h-368zM158 1241v270h368v-270h-368z" />
<glyph unicode="j" horiz-adv-x="684" d="M-51 -436l8 233q27 -6 78 -6q41 0 67.5 16.5t38 50t14.5 64.5t3 78v1067h368v-1077q0 -215 -84 -330t-286 -115q-123 1 -207 19zM158 1241v270h368v-270h-368z" />
<glyph unicode="k" d="M115 0v1536h368v-918h4l308 449h403l-371 -489l402 -578h-447l-295 528h-4v-528h-368z" />
<glyph unicode="l" horiz-adv-x="684" d="M158 0v1536h368v-1536h-368z" />
<glyph unicode="m" horiz-adv-x="2048" d="M115 0v1067h336v-197h4q106 221 389 222q250 0 334 -205q123 205 378 205q217 0 297 -114t80 -349v-629h-368v573q0 211 -148 211q-209 0 -209 -333v-451h-368v573q0 211 -148 211q-209 0 -209 -333v-451h-368z" />
<glyph unicode="n" horiz-adv-x="1366" d="M115 0v1067h336v-197h4q106 221 389 222q205 0 306 -122t101 -304v-666h-368v516q0 268 -170 268q-229 0 -230 -333v-451h-368z" />
<glyph unicode="o" horiz-adv-x="1368" d="M63 532q0 260 174.5 410t446.5 150t446.5 -149.5t174.5 -410.5q0 -258 -174.5 -407.5t-446.5 -149.5t-446.5 149.5t-174.5 407.5zM444 532q0 -129 59.5 -214t180.5 -85t180.5 85t59.5 214q0 131 -59.5 216.5t-180.5 85.5t-180.5 -85.5t-59.5 -216.5z" />
<glyph unicode="p" horiz-adv-x="1368" d="M106 -430v1497h340v-193h5q53 109 159.5 163.5t237.5 54.5q209 0 333 -164t124 -375q0 -248 -129 -413t-359 -165q-242 0 -338 175h-4v-580h-369zM475 530q0 -115 65.5 -193.5t159.5 -78.5q102 0 163 79t61 208q0 111 -59.5 187.5t-164.5 76.5q-100 0 -162.5 -79 t-62.5 -200z" />
<glyph unicode="q" horiz-adv-x="1368" d="M63 553q0 213 124 376t333 163q133 0 238.5 -54.5t159.5 -163.5h4v193h340v-1497h-369v580h-4q-96 -174 -338 -175q-229 0 -358.5 165t-129.5 413zM444 545q0 -129 60.5 -208t163.5 -79q94 0 159.5 79t65.5 193q0 123 -62.5 201t-162.5 78q-104 0 -164 -76.5t-60 -187.5z " />
<glyph unicode="r" horiz-adv-x="909" d="M115 0v1067h336v-197h4q104 221 315 222q51 0 125 -13l-18 -307q-41 12 -125 12q-129 0 -199 -88t-70 -245v-451h-368z" />
<glyph unicode="s" horiz-adv-x="1024" d="M66 745q0 170 137 258.5t317 88.5q219 0 375 -62l-29 -256q-119 72 -286 72q-170 0 -170 -74q0 -45 56 -69.5t137 -42t162 -45t137 -99.5t56 -184q0 -102 -42 -175t-116.5 -111t-157.5 -54.5t-181 -16.5q-227 0 -387 52l20 268q172 -74 346 -74q150 0 150 86 q0 49 -54.5 77t-131 46.5t-153.5 46t-131 95t-54 173.5z" />
<glyph unicode="t" horiz-adv-x="909" d="M20 809v258h218v240l362 112v-352h258v-258h-258v-393q0 -102 32 -148.5t116 -46.5q27 0 112 15l12 -240q-174 -20 -231 -21q-236 0 -323 97.5t-87 302.5v434h-211z" />
<glyph unicode="u" horiz-adv-x="1366" d="M115 401v666h368v-516q0 -268 170 -268q229 0 230 333v451h368v-1067h-336v197h-4q-106 -221 -389 -222q-205 0 -306 122t-101 304z" />
<glyph unicode="v" d="M20 1067h396l221 -760h4l223 760h367l-395 -1067h-420z" />
<glyph unicode="w" horiz-adv-x="1933" d="M18 1067h385l172 -768h5l184 768h442l180 -768h5l168 768h356l-326 -1067h-428l-180 772h-4l-203 -772h-428z" />
<glyph unicode="x" d="M18 0l363 543l-334 524h436l158 -319l166 319h403l-333 -520l356 -547h-445l-178 332l-176 -332h-416z" />
<glyph unicode="y" d="M16 1067h398l229 -696h4l219 696h369l-391 -993q-92 -238 -137 -312q-125 -203 -351 -217h-34q-117 0 -230 25l25 280q68 -23 145 -22q68 0 117 39t70 108z" />
<glyph unicode="z" horiz-adv-x="1024" d="M53 0v295l488 502h-478v270h900v-295l-488 -502h496v-270h-918z" />
<glyph unicode="{" horiz-adv-x="796" d="M61 539v184q25 0 49.5 4t56.5 16.5t51.5 42t19.5 72.5v410q0 137 86 208.5t206 71.5h205v-184h-96q-119 0 -119 -131v-375q-2 -209 -237 -225v-4q45 -4 75.5 -10.5t72.5 -29t65.5 -72.5t23.5 -128v-360q0 -131 119 -131h96v-185h-205q-121 0 -206.5 72t-85.5 209v395 q0 47 -19.5 80t-51.5 46t-56.5 18.5t-49.5 5.5z" />
<glyph unicode="|" horiz-adv-x="454" d="M98 -512v2048h258v-2048h-258z" />
<glyph unicode="}" horiz-adv-x="796" d="M61 -102h97q119 0 118 131v374q2 209 238 226v4q-45 4 -75.5 10t-72.5 28.5t-66 73t-24 127.5v361q0 131 -118 131h-97v184h205q121 0 207 -71.5t86 -208.5v-396q0 -47 19.5 -79.5t51.5 -46t56.5 -18.5t48.5 -5v-184q-25 0 -49 -4.5t-56 -16.5t-51.5 -42t-19.5 -73v-409 q0 -137 -86 -209t-207 -72h-205v185z" />
<glyph unicode="~" horiz-adv-x="1228" d="M141 537q92 176 256 176q88 0 232.5 -65.5t204.5 -65.5q39 0 73.5 23.5t55 48t51.5 69.5l73 -223q-92 -176 -256 -176q-88 0 -232 65.5t-204 65.5q-39 0 -73.5 -23.5t-55 -48.5t-51.5 -70z" />
<glyph unicode="&#xa1;" horiz-adv-x="909" d="M264 -362l53 944h275l53 -944h-381zM283 735v332h344v-332h-344z" />
<glyph unicode="&#xa2;" horiz-adv-x="1253" d="M150 532q0 260 174 410t446 150q53 0 107 -7l73 240h121l-80 -264q27 -8 72 -29l-27 -270q-66 39 -121 51l-165 -555q43 -12 84 -12q133 0 229 51l8 -274q-141 -47 -301 -48q-53 0 -102 7l-82 -269h-123l88 293q-184 51 -292.5 188t-108.5 338zM530 526q0 -141 113 -219 l154 514q-117 -4 -192 -84t-75 -211z" />
<glyph unicode="&#xa3;" horiz-adv-x="1253" d="M109 0v270h188v389h-172v185h176v108q0 252 150.5 377t427.5 125q129 0 276 -37l-16 -270q-72 25 -170 24q-162 0 -226.5 -64.5t-64.5 -195.5v-67h311v-185h-311v-389h461v-270h-1030z" />
<glyph unicode="&#xa4;" horiz-adv-x="1253" d="M94 309l119 117q-94 94 -94 288.5t94 289.5l-119 116l129 127l117 -110q51 41 132 63.5t154.5 22.5t154.5 -22.5t132 -63.5l117 110l129 -127l-119 -116q94 -94 94.5 -289t-94.5 -289l119 -117l-129 -127l-117 111q-51 -41 -132 -63.5t-154.5 -22.5t-154.5 22.5 t-132 63.5l-117 -111zM389 714.5q0 -108.5 67.5 -179t170 -70.5t170 70.5t67.5 179t-67.5 179.5t-170 71t-170 -71t-67.5 -179.5z" />
<glyph unicode="&#xa5;" horiz-adv-x="1253" d="M0 1430h381l246 -578l241 578h385l-338 -680h199v-172h-283l-20 -39v-88h303v-172h-303v-279h-369v279h-303v172h303v88l-18 39h-285v172h199z" />
<glyph unicode="&#xa6;" horiz-adv-x="454" d="M98 358h258v-716h-258v716zM98 666v716h258v-716h-258z" />
<glyph unicode="&#xa7;" d="M123 588q0 92 46 156.5t138 121.5q-70 31 -116 97.5t-46 140.5q0 350 533 350q141 0 332 -51l-17 -254q-150 59 -317 59q-162 0 -162 -94q0 -43 63.5 -79t153.5 -66.5t180 -72.5t153.5 -120t63.5 -184q0 -160 -167 -279q63 -33 103 -103.5t40 -143.5q0 -92 -51.5 -162 t-133 -109t-171 -58.5t-179.5 -19.5q-180 0 -397 60l18 268q178 -82 365 -82q180 0 180 107q0 47 -63.5 86t-152.5 71.5t-179 73.5t-153.5 115t-63.5 172zM430 639q0 -51 35 -84q27 -25 64.5 -46.5t65.5 -33.5t85 -34l80 -29q61 72 61 155q0 55 -65 95q-70 43 -258 120 q-68 -80 -68 -143z" />
<glyph unicode="&#xa8;" horiz-adv-x="681" d="M-39 1198v295h295v-295h-295zM428 1198v295h295v-295h-295z" />
<glyph unicode="&#xa9;" horiz-adv-x="1638" d="M80 715q0 305 217 522t522 217t522.5 -217t217.5 -522t-217.5 -522.5t-522.5 -217.5t-522 217.5t-217 522.5zM313 714.5q0 -225.5 147.5 -378t358.5 -152.5t358.5 152.5t147.5 378t-147.5 378t-358.5 152.5t-358.5 -152.5t-147.5 -378zM432 714.5q0 186.5 107.5 305.5 t289.5 119q160 0 250 -82t95 -228h-197q-18 59 -50 86t-98 27q-76 0 -119.5 -61.5t-43.5 -166t44 -167t119 -62.5q66 0 97.5 27t50.5 86h197q-4 -145 -94.5 -227t-250.5 -82q-182 0 -289.5 119.5t-107.5 306z" />
<glyph unicode="&#xaa;" horiz-adv-x="813" d="M43 983q0 70 36 117t92 67.5t103.5 28.5t92.5 8q23 0 145 -8q0 115 -158 115q-129 0 -225 -51v149q123 45 277 45q76 0 131 -8t109 -31.5t83 -74t29 -126.5v-294q4 -63 12 -125h-242l-12 96h-4q-68 -113 -211 -113q-111 0 -184.5 51.5t-73.5 153.5zM289 999q0 -78 88 -77 q57 0 96 45t39 106h-88q-135 0 -135 -74z" />
<glyph unicode="&#xab;" d="M96 551l244 418h303l-225 -418l225 -418h-303zM584 551l243 418h303l-225 -418l225 -418h-303z" />
<glyph unicode="&#xac;" horiz-adv-x="1228" d="M96 625v258h1037v-662h-259v404h-778z" />
<glyph unicode="&#xad;" horiz-adv-x="681" d="M63 416v270h555v-270h-555z" />
<glyph unicode="&#xae;" horiz-adv-x="1638" d="M80 715q0 305 217 522t522 217t522.5 -217t217.5 -522t-217.5 -522.5t-522.5 -217.5t-522 217.5t-217 522.5zM313 714.5q0 -225.5 147.5 -378t358.5 -152.5t358.5 152.5t147.5 378t-147.5 378t-358.5 152.5t-358.5 -152.5t-147.5 -378zM526 315v805h328q158 0 233.5 -52 t75.5 -183q0 -109 -61.5 -163t-163.5 -58l192 -349h-196l-176 336h-35v-336h-197zM723 807h119q125 0 125 88q0 70 -142 70h-102v-158z" />
<glyph unicode="&#xaf;" horiz-adv-x="681" d="M-43 1276v172h768v-172h-768z" />
<glyph unicode="&#xb0;" horiz-adv-x="819" d="M109 1153q0 125 88 213t213 88t213 -88t88 -213t-88 -213t-213 -88t-213 88t-88 213zM264 1153q0 -59 43 -102t102.5 -43t102.5 43t43 102t-43 102t-102.5 43t-102.5 -43t-43 -102z" />
<glyph unicode="&#xb1;" horiz-adv-x="1228" d="M96 0v258h1037v-258h-1037zM96 549v258h389v229h258v-229h390v-258h-390v-230h-258v230h-389z" />
<glyph unicode="&#xb2;" horiz-adv-x="815" d="M61 578v184q397 270 398 405q0 43 -36 66.5t-89 23.5q-129 0 -238 -49l-10 197q158 49 342 49q135 0 230.5 -66.5t95.5 -185.5q0 -45 -18.5 -92t-39 -81t-68.5 -84t-74 -73l-87 -77l-37 -33h307v-184h-676z" />
<glyph unicode="&#xb3;" horiz-adv-x="815" d="M57 590l13 213q90 -45 225 -45q82 0 131 22.5t49 61.5q0 78 -162 78q-47 0 -104 -5v183q29 -6 113 -6q66 0 102.5 24.5t36.5 65.5t-47 58t-107 17q-111 0 -207 -40l-12 200q129 37 287 37q156 0 262 -54t106 -183q0 -145 -174 -189v-4q88 -14 138.5 -65.5t50.5 -129.5 q0 -76 -37 -131t-98.5 -83.5t-129 -41t-145.5 -12.5q-203 0 -291 29z" />
<glyph unicode="&#xb4;" horiz-adv-x="681" d="M203 1198l139 295h383l-264 -295h-258z" />
<glyph unicode="&#xb5;" horiz-adv-x="1366" d="M115 -430v1497h368v-516q0 -268 170 -268q229 0 230 333v451h368v-1067h-336v197h-4q-106 -221 -389 -222h-35v-405h-372z" />
<glyph unicode="&#xb6;" horiz-adv-x="1269" d="M37 1071.5q0 358.5 457 358.5h690v-1688h-246v1503h-199v-1503h-245v971q-457 0 -457 358.5z" />
<glyph unicode="&#xb7;" horiz-adv-x="626" d="M123 557q0 78 56.5 134.5t134 56.5t134 -56.5t56.5 -134.5t-56.5 -134t-134 -56t-134 56t-56.5 134z" />
<glyph unicode="&#xb8;" horiz-adv-x="681" d="M113 -408l34 95q96 -43 179 -43q104 0 104 63q0 72 -78 72q-27 0 -57 -12l-80 49l86 184h135l-55 -133q47 10 98 10q66 0 113 -44t47 -134q0 -154 -270 -154q-139 0 -256 47z" />
<glyph unicode="&#xb9;" horiz-adv-x="815" d="M61 1247l312 191h231v-860h-270v589l-162 -98z" />
<glyph unicode="&#xba;" horiz-adv-x="888" d="M35 1116.5q0 155.5 114.5 246.5t295 91t295 -91t114.5 -246.5t-114.5 -247t-295 -91.5t-295 91.5t-114.5 247zM293 1116q0 -70 38 -118t113.5 -48t113.5 48.5t38 117.5q0 68 -39 117t-112.5 49t-112.5 -49t-39 -117z" />
<glyph unicode="&#xbb;" d="M121 133l225 418l-225 418h303l244 -418l-244 -418h-303zM608 133l226 418l-226 418h303l244 -418l-244 -418h-303z" />
<glyph unicode="&#xbc;" horiz-adv-x="1875" d="M61 1251l312 191h231v-860h-270v589l-162 -98zM428 -45l793 1520h223l-793 -1520h-223zM1032 145v207l367 508h309v-530h123v-185h-123v-145h-246v145h-430zM1210 330h252v352h-4z" />
<glyph unicode="&#xbd;" horiz-adv-x="1875" d="M45 1247l311 191h232v-860h-271v589l-161 -98zM412 -45l792 1520h223l-792 -1520h-223zM1139 0v184q397 270 397 406q0 43 -36 66.5t-89 23.5q-129 0 -237 -49l-11 196q158 49 342 50q135 0 230.5 -67t95.5 -185q0 -45 -18.5 -92.5t-39 -81t-68.5 -84t-74 -72.5l-87 -78 l-37 -33h308v-184h-676z" />
<glyph unicode="&#xbe;" horiz-adv-x="1875" d="M57 590l13 213q90 -45 225 -45q82 0 131 22.5t49 61.5q0 78 -162 78q-47 0 -104 -5v183q29 -6 113 -6q66 0 102.5 24.5t36.5 65.5t-47 58t-107 17q-111 0 -207 -40l-12 200q129 37 287 37q156 0 262 -54t106 -183q0 -145 -174 -189v-4q88 -14 138.5 -65.5t50.5 -129.5 q0 -76 -37 -131t-98.5 -83.5t-129 -41t-145.5 -12.5q-203 0 -291 29zM428 -45l793 1520h223l-793 -1520h-223zM1032 145v207l367 508h309v-530h123v-185h-123v-145h-246v145h-430zM1210 330h252v352h-4z" />
<glyph unicode="&#xbf;" horiz-adv-x="1138" d="M82 -43q0 78 31.5 144.5t79.5 118.5l95 103q48 50 85 117.5t43 141.5h299q0 -72 -28 -139.5t-66 -116.5l-77 -97q-38 -47 -65.5 -98t-27.5 -100q0 -72 69.5 -110t155.5 -38q172 0 321 76l9 -287q-193 -59 -431 -59q-123 0 -229 30.5t-185 111.5t-79 202zM393 735v332h344 v-332h-344z" />
<glyph unicode="&#xc0;" horiz-adv-x="1593" d="M16 0l543 1430h467l551 -1430h-418l-106 305h-537l-113 -305h-387zM438 1800h383l140 -295h-259zM604 575h359l-170 560h-5z" />
<glyph unicode="&#xc1;" horiz-adv-x="1593" d="M16 0l543 1430h467l551 -1430h-418l-106 305h-537l-113 -305h-387zM604 575h359l-170 560h-5zM631 1505l139 295h383l-264 -295h-258z" />
<glyph unicode="&#xc2;" horiz-adv-x="1593" d="M16 0l543 1430h467l551 -1430h-418l-106 305h-537l-113 -305h-387zM403 1505l232 295h332l223 -295h-256l-133 160l-142 -160h-256zM604 575h359l-170 560h-5z" />
<glyph unicode="&#xc3;" horiz-adv-x="1593" d="M16 0l543 1430h467l551 -1430h-418l-106 305h-537l-113 -305h-387zM397 1505q14 121 80 205t180 84q59 0 160 -37t133 -37q88 0 103 80h147q-14 -127 -79.5 -208t-184.5 -81q-57 0 -159.5 37t-131.5 37q-82 0 -100 -80h-148zM604 575h359l-170 560h-5z" />
<glyph unicode="&#xc4;" horiz-adv-x="1593" d="M16 0l543 1430h467l551 -1430h-418l-106 305h-537l-113 -305h-387zM418 1505v295h295v-295h-295zM604 575h359l-170 560h-5zM885 1505v295h295v-295h-295z" />
<glyph unicode="&#xc5;" horiz-adv-x="1593" d="M16 0l543 1430h467l551 -1430h-418l-106 305h-537l-113 -305h-387zM569 1724.5q0 94.5 68 162t162 67.5t161.5 -67.5t67.5 -162t-67.5 -162t-161.5 -67.5t-162 67.5t-68 162zM604 575h359l-170 560h-5zM700 1724q0 -41 29 -69.5t70 -28.5t69.5 28.5t28.5 69.5t-28.5 70 t-69.5 29t-70 -29t-29 -70z" />
<glyph unicode="&#xc6;" horiz-adv-x="2048" d="M-8 0l747 1430h1205v-271h-586v-295h549v-270h-549v-324h610v-270h-991v305h-436l-150 -305h-399zM674 575h303v584h-19z" />
<glyph unicode="&#xc7;" horiz-adv-x="1366" d="M80 709q0 360 226 552.5t593 192.5q176 0 424 -74l-31 -309q-182 100 -372 100q-201 0 -324 -130t-123 -332q0 -207 132 -329t345 -122q168 0 357 74l18 -299q-233 -57 -424 -58h-22l-45 -108q47 10 98 10q66 0 113 -44t47 -134q0 -154 -271 -154q-137 0 -256 47l35 95 q96 -43 178 -43q104 0 105 63q0 72 -78 72q-27 0 -57 -12l-80 49l80 172q-133 18 -248 67t-212.5 134t-152.5 218.5t-55 301.5z" />
<glyph unicode="&#xc8;" d="M123 0v1430h1007v-271h-626v-295h592v-270h-592v-324h649v-270h-1030zM266 1800h383l139 -295h-258z" />
<glyph unicode="&#xc9;" d="M123 0v1430h1007v-271h-626v-295h592v-270h-592v-324h649v-270h-1030zM459 1505l139 295h383l-264 -295h-258z" />
<glyph unicode="&#xca;" d="M123 0v1430h1007v-271h-626v-295h592v-270h-592v-324h649v-270h-1030zM231 1505l232 295h332l223 -295h-256l-133 160l-142 -160h-256z" />
<glyph unicode="&#xcb;" d="M123 0v1430h1007v-271h-626v-295h592v-270h-592v-324h649v-270h-1030zM246 1505v295h295v-295h-295zM713 1505v295h295v-295h-295z" />
<glyph unicode="&#xcc;" horiz-adv-x="684" d="M-16 1800h383l139 -295h-258zM152 0v1430h380v-1430h-380z" />
<glyph unicode="&#xcd;" horiz-adv-x="684" d="M152 0v1430h380v-1430h-380zM174 1505l139 295h383l-264 -295h-258z" />
<glyph unicode="&#xce;" horiz-adv-x="684" d="M-51 1505l231 295h332l223 -295h-256l-133 160l-141 -160h-256zM152 0v1430h380v-1430h-380z" />
<glyph unicode="&#xcf;" horiz-adv-x="684" d="M-37 1505v295h295v-295h-295zM152 0v1430h380v-1430h-380zM430 1505v295h295v-295h-295z" />
<glyph unicode="&#xd0;" horiz-adv-x="1593" d="M-4 639v209h137v582h520q197 0 344.5 -34t264 -113t177 -219t60.5 -343q0 -195 -62.5 -337t-179 -225t-265 -121t-339.5 -38h-520v639h-137zM514 283h148q215 0 329.5 109.5t114.5 322.5q0 211 -117 321.5t-327 110.5h-148v-299h342v-209h-342v-356z" />
<glyph unicode="&#xd1;" horiz-adv-x="1593" d="M139 0v1430h486l483 -971h4l-6 971h348v-1430h-473l-500 977h-4l12 -977h-350zM397 1505q14 121 80 205t180 84q59 0 160 -37t133 -37q88 0 103 80h147q-14 -127 -79.5 -208t-184.5 -81q-57 0 -159.5 37t-131.5 37q-82 0 -100 -80h-148z" />
<glyph unicode="&#xd2;" horiz-adv-x="1593" d="M80 715q0 348 184.5 543.5t532.5 195.5t532 -195.5t184 -543.5q0 -346 -185 -543t-531 -197t-531.5 197t-185.5 543zM438 1800h383l140 -295h-259zM473 715q0 -195 81 -326t242.5 -131t242.5 131t81 326q0 201 -79.5 328.5t-243.5 127.5t-244 -127.5t-80 -328.5z" />
<glyph unicode="&#xd3;" horiz-adv-x="1593" d="M80 715q0 348 184.5 543.5t532.5 195.5t532 -195.5t184 -543.5q0 -346 -185 -543t-531 -197t-531.5 197t-185.5 543zM473 715q0 -195 81 -326t242.5 -131t242.5 131t81 326q0 201 -79.5 328.5t-243.5 127.5t-244 -127.5t-80 -328.5zM631 1505l139 295h383l-264 -295h-258 z" />
<glyph unicode="&#xd4;" horiz-adv-x="1593" d="M80 715q0 348 184.5 543.5t532.5 195.5t532 -195.5t184 -543.5q0 -346 -185 -543t-531 -197t-531.5 197t-185.5 543zM403 1505l232 295h332l223 -295h-256l-133 160l-142 -160h-256zM473 715q0 -195 81 -326t242.5 -131t242.5 131t81 326q0 201 -79.5 328.5t-243.5 127.5 t-244 -127.5t-80 -328.5z" />
<glyph unicode="&#xd5;" horiz-adv-x="1593" d="M80 715q0 348 184.5 543.5t532.5 195.5t532 -195.5t184 -543.5q0 -346 -185 -543t-531 -197t-531.5 197t-185.5 543zM397 1505q14 121 80 205t180 84q59 0 160 -37t133 -37q88 0 103 80h147q-14 -127 -79.5 -208t-184.5 -81q-57 0 -159.5 37t-131.5 37q-82 0 -100 -80 h-148zM473 715q0 -195 81 -326t242.5 -131t242.5 131t81 326q0 201 -79.5 328.5t-243.5 127.5t-244 -127.5t-80 -328.5z" />
<glyph unicode="&#xd6;" horiz-adv-x="1593" d="M80 715q0 348 184.5 543.5t532.5 195.5t532 -195.5t184 -543.5q0 -346 -185 -543t-531 -197t-531.5 197t-185.5 543zM418 1505v295h295v-295h-295zM473 715q0 -195 81 -326t242.5 -131t242.5 131t81 326q0 201 -79.5 328.5t-243.5 127.5t-244 -127.5t-80 -328.5z M885 1505v295h295v-295h-295z" />
<glyph unicode="&#xd7;" horiz-adv-x="1228" d="M127 207l311 311l-311 311l176 177l311 -312l312 312l176 -177l-314 -311l314 -311l-176 -176l-312 313l-311 -313z" />
<glyph unicode="&#xd8;" horiz-adv-x="1593" d="M31 35l186 198q-137 184 -137 482q0 348 184.5 543.5t532.5 195.5q268 0 442 -121l172 187l131 -123l-172 -187q143 -190 143 -495q0 -346 -185 -543t-531 -197q-281 0 -455 131l-180 -194zM473 715q0 -106 23 -183l512 551q-82 88 -211 88q-164 0 -244 -127.5 t-80 -328.5zM578 358q80 -100 219 -100q162 0 242.5 131t80.5 326q0 113 -24 200z" />
<glyph unicode="&#xd9;" horiz-adv-x="1478" d="M113 543v887h381v-824q0 -348 245.5 -348t245.5 348v824h381v-887q0 -285 -168 -426.5t-458.5 -141.5t-458.5 141.5t-168 426.5zM381 1800h383l139 -295h-258z" />
<glyph unicode="&#xda;" horiz-adv-x="1478" d="M113 543v887h381v-824q0 -348 245.5 -348t245.5 348v824h381v-887q0 -285 -168 -426.5t-458.5 -141.5t-458.5 141.5t-168 426.5zM573 1505l140 295h383l-265 -295h-258z" />
<glyph unicode="&#xdb;" horiz-adv-x="1478" d="M113 543v887h381v-824q0 -348 245.5 -348t245.5 348v824h381v-887q0 -285 -168 -426.5t-458.5 -141.5t-458.5 141.5t-168 426.5zM346 1505l232 295h331l224 -295h-256l-134 160l-141 -160h-256z" />
<glyph unicode="&#xdc;" horiz-adv-x="1478" d="M113 543v887h381v-824q0 -348 245.5 -348t245.5 348v824h381v-887q0 -285 -168 -426.5t-458.5 -141.5t-458.5 141.5t-168 426.5zM360 1505v295h295v-295h-295zM827 1505v295h295v-295h-295z" />
<glyph unicode="&#xdd;" horiz-adv-x="1478" d="M23 1430h438l280 -574l277 574h438l-524 -891v-539h-381v539zM602 1505l139 295h383l-264 -295h-258z" />
<glyph unicode="&#xde;" d="M113 0v1430h381v-179h73q334 0 487.5 -107.5t153.5 -361.5q0 -231 -147.5 -345.5t-419.5 -114.5h-147v-322h-381zM494 592h98q236 0 235 196q0 193 -235 193h-98v-389z" />
<glyph unicode="&#xdf;" horiz-adv-x="1366" d="M115 0v1012q0 133 35.5 233.5t92 158.5t137.5 95t155.5 49.5t160.5 12.5q106 0 196.5 -21.5t169.5 -68t124 -131.5t45 -201q0 -137 -62.5 -219t-193.5 -127v-5q311 -49 311 -356q0 -127 -45 -217t-124 -138t-166 -68.5t-189 -20.5q-88 0 -182 12l10 268q68 -10 133 -10 q195 0 195 211q0 94 -52.5 147.5t-134.5 53.5q-68 0 -100 -4v262h51q78 0 129 54t51 140q0 94 -46 143.5t-130 49.5q-109 0 -156 -78t-47 -199v-1038h-368z" />
<glyph unicode="&#xe0;" d="M63 311q0 92 40 162t96.5 107.5t137.5 60.5t144.5 29t132.5 6q90 0 172 -14q-2 184 -243 184q-197 0 -340 -80l-6 250q186 76 426 76q225 0 366 -106.5t141 -336.5v-397q0 -147 21 -252h-338q0 20 -4 78.5t-4 89.5h-4q-121 -193 -338 -193q-170 0 -285 86t-115 250z M266 1493h383l139 -295h-258zM408 338q0 -53 43 -85t108 -32q100 0 163.5 77t63.5 175q-141 6 -155 6q-223 0 -223 -141z" />
<glyph unicode="&#xe1;" d="M63 311q0 92 40 162t96.5 107.5t137.5 60.5t144.5 29t132.5 6q90 0 172 -14q-2 184 -243 184q-197 0 -340 -80l-6 250q186 76 426 76q225 0 366 -106.5t141 -336.5v-397q0 -147 21 -252h-338q0 20 -4 78.5t-4 89.5h-4q-121 -193 -338 -193q-170 0 -285 86t-115 250z M408 338q0 -53 43 -85t108 -32q100 0 163.5 77t63.5 175q-141 6 -155 6q-223 0 -223 -141zM487 1198l140 295h383l-265 -295h-258z" />
<glyph unicode="&#xe2;" d="M63 311q0 92 40 162t96.5 107.5t137.5 60.5t144.5 29t132.5 6q90 0 172 -14q-2 184 -243 184q-197 0 -340 -80l-6 250q186 76 426 76q225 0 366 -106.5t141 -336.5v-397q0 -147 21 -252h-338q0 20 -4 78.5t-4 89.5h-4q-121 -193 -338 -193q-170 0 -285 86t-115 250z M231 1198l232 295h332l223 -295h-256l-133 160l-142 -160h-256zM408 338q0 -53 43 -85t108 -32q100 0 163.5 77t63.5 175q-141 6 -155 6q-223 0 -223 -141z" />
<glyph unicode="&#xe3;" d="M63 311q0 92 40 162t96.5 107.5t137.5 60.5t144.5 29t132.5 6q90 0 172 -14q-2 184 -243 184q-197 0 -340 -80l-6 250q186 76 426 76q225 0 366 -106.5t141 -336.5v-397q0 -147 21 -252h-338q0 20 -4 78.5t-4 89.5h-4q-121 -193 -338 -193q-170 0 -285 86t-115 250z M225 1198q14 121 80 205t180 84q59 0 159.5 -37t133.5 -37q88 0 103 80h147q-14 -127 -79.5 -208t-184.5 -81q-57 0 -159.5 37t-131.5 37q-82 0 -100 -80h-148zM408 338q0 -53 43 -85t108 -32q100 0 163.5 77t63.5 175q-141 6 -155 6q-223 0 -223 -141z" />
<glyph unicode="&#xe4;" d="M63 311q0 92 40 162t96.5 107.5t137.5 60.5t144.5 29t132.5 6q90 0 172 -14q-2 184 -243 184q-197 0 -340 -80l-6 250q186 76 426 76q225 0 366 -106.5t141 -336.5v-397q0 -147 21 -252h-338q0 20 -4 78.5t-4 89.5h-4q-121 -193 -338 -193q-170 0 -285 86t-115 250z M246 1198v295h295v-295h-295zM408 338q0 -53 43 -85t108 -32q100 0 163.5 77t63.5 175q-141 6 -155 6q-223 0 -223 -141zM713 1198v295h295v-295h-295z" />
<glyph unicode="&#xe5;" d="M63 311q0 92 40 162t96.5 107.5t137.5 60.5t144.5 29t132.5 6q90 0 172 -14q-2 184 -243 184q-197 0 -340 -80l-6 250q186 76 426 76q225 0 366 -106.5t141 -336.5v-397q0 -147 21 -252h-338q0 20 -4 78.5t-4 89.5h-4q-121 -193 -338 -193q-170 0 -285 86t-115 250z M397 1388.5q0 94.5 67.5 162t162 67.5t162 -67.5t67.5 -162t-67.5 -162t-162 -67.5t-162 67.5t-67.5 162zM408 338q0 -53 43 -85t108 -32q100 0 163.5 77t63.5 175q-141 6 -155 6q-223 0 -223 -141zM528 1389q0 -41 29 -70t70 -29t69.5 29t28.5 70t-28.5 69.5t-69.5 28.5 t-70 -28.5t-29 -69.5z" />
<glyph unicode="&#xe6;" horiz-adv-x="1933" d="M45 313q0 92 40 162t96.5 106.5t137 59.5t144 29t133.5 6q55 0 172 -10q-2 180 -244 180q-197 0 -340 -80l-6 252q188 74 426 74q254 -8 359 -131q164 131 376 131q143 0 250 -48.5t168.5 -133.5t91 -188.5t29.5 -227.5v-68h-737q29 -205 313 -205q174 0 326 82v-260 q-170 -68 -391 -68q-166 0 -288 49.5t-198 190.5q-74 -133 -187.5 -186.5t-271.5 -53.5q-170 0 -284.5 86t-114.5 252zM389 340q0 -55 43 -87t109 -32q100 0 163.5 79t63.5 179h-141q-238 0 -238 -139zM1137 635h409q0 100 -50 161.5t-155 61.5q-94 0 -146 -62.5t-58 -160.5 z" />
<glyph unicode="&#xe7;" horiz-adv-x="1024" d="M63 532q0 260 174.5 410t446.5 150q172 0 293 -60l-27 -270q-98 59 -223 59q-123 0 -203 -79.5t-80 -215.5q0 -123 89.5 -201.5t214.5 -78.5q133 0 229 51l8 -274q-141 -47 -301 -48q-23 0 -31 2l-45 -110q47 10 99 10q66 0 112.5 -44t46.5 -134q0 -154 -270 -154 q-137 0 -256 47l35 95q96 -43 178 -43q104 0 104 63q0 72 -77 72q-27 0 -58 -12l-80 49l82 178q-209 39 -335 180t-126 358z" />
<glyph unicode="&#xe8;" d="M63 535q0 260 159 408.5t413 148.5q143 0 249.5 -48.5t168 -133.5t91.5 -188.5t30 -227.5v-68h-738q29 -205 314 -205q174 0 325 82v-260q-170 -68 -391 -68q-270 0 -445.5 151t-175.5 409zM266 1493h383l139 -295h-258zM432 635h410q0 100 -50.5 161.5t-154.5 61.5 q-94 0 -146.5 -62.5t-58.5 -160.5z" />
<glyph unicode="&#xe9;" d="M63 535q0 260 159 408.5t413 148.5q143 0 249.5 -48.5t168 -133.5t91.5 -188.5t30 -227.5v-68h-738q29 -205 314 -205q174 0 325 82v-260q-170 -68 -391 -68q-270 0 -445.5 151t-175.5 409zM432 635h410q0 100 -50.5 161.5t-154.5 61.5q-94 0 -146.5 -62.5t-58.5 -160.5z M487 1198l140 295h383l-265 -295h-258z" />
<glyph unicode="&#xea;" d="M63 535q0 260 159 408.5t413 148.5q143 0 249.5 -48.5t168 -133.5t91.5 -188.5t30 -227.5v-68h-738q29 -205 314 -205q174 0 325 82v-260q-170 -68 -391 -68q-270 0 -445.5 151t-175.5 409zM231 1198l232 295h332l223 -295h-256l-133 160l-142 -160h-256zM432 635h410 q0 100 -50.5 161.5t-154.5 61.5q-94 0 -146.5 -62.5t-58.5 -160.5z" />
<glyph unicode="&#xeb;" d="M63 535q0 260 159 408.5t413 148.5q143 0 249.5 -48.5t168 -133.5t91.5 -188.5t30 -227.5v-68h-738q29 -205 314 -205q174 0 325 82v-260q-170 -68 -391 -68q-270 0 -445.5 151t-175.5 409zM246 1198v295h295v-295h-295zM432 635h410q0 100 -50.5 161.5t-154.5 61.5 q-94 0 -146.5 -62.5t-58.5 -160.5zM713 1198v295h295v-295h-295z" />
<glyph unicode="&#xec;" horiz-adv-x="684" d="M-16 1493h383l139 -295h-258zM158 0v1067h368v-1067h-368z" />
<glyph unicode="&#xed;" horiz-adv-x="684" d="M158 0v1067h368v-1067h-368zM205 1198l139 295h383l-264 -295h-258z" />
<glyph unicode="&#xee;" horiz-adv-x="684" d="M-51 1198l231 295h332l223 -295h-256l-133 160l-141 -160h-256zM158 0v1067h368v-1067h-368z" />
<glyph unicode="&#xef;" horiz-adv-x="684" d="M-37 1198v295h295v-295h-295zM158 0v1067h368v-1067h-368zM430 1198v295h295v-295h-295z" />
<glyph unicode="&#xf0;" horiz-adv-x="1368" d="M63 510q0 219 142.5 373.5t357.5 154.5q256 0 328 -166l4 5q-61 193 -311 342l-295 -136l-123 134l219 100q-43 18 -182 69l213 224q172 -59 317 -135l299 135l127 -131l-246 -111q391 -276 392 -750q0 -299 -167 -471t-470 -172q-291 0 -448 134.5t-157 400.5zM444 510 q0 -115 57.5 -196t174.5 -81q125 0 186.5 82t61.5 197q0 113 -61.5 190.5t-186.5 77.5q-117 0 -174.5 -77.5t-57.5 -192.5z" />
<glyph unicode="&#xf1;" horiz-adv-x="1366" d="M115 0v1067h336v-197h4q106 221 389 222q205 0 306 -122t101 -304v-666h-368v516q0 268 -170 268q-229 0 -230 -333v-451h-368zM283 1198q14 121 79.5 205t180.5 84q59 0 159.5 -37t133.5 -37q88 0 102 80h147q-14 -127 -79.5 -208t-184.5 -81q-57 0 -159.5 37t-131.5 37 q-82 0 -100 -80h-147z" />
<glyph unicode="&#xf2;" horiz-adv-x="1368" d="M63 532q0 260 174.5 410t446.5 150t446.5 -149.5t174.5 -410.5q0 -258 -174.5 -407.5t-446.5 -149.5t-446.5 149.5t-174.5 407.5zM326 1493h383l139 -295h-258zM444 532q0 -129 59.5 -214t180.5 -85t180.5 85t59.5 214q0 131 -59.5 216.5t-180.5 85.5t-180.5 -85.5 t-59.5 -216.5z" />
<glyph unicode="&#xf3;" horiz-adv-x="1368" d="M63 532q0 260 174.5 410t446.5 150t446.5 -149.5t174.5 -410.5q0 -258 -174.5 -407.5t-446.5 -149.5t-446.5 149.5t-174.5 407.5zM444 532q0 -129 59.5 -214t180.5 -85t180.5 85t59.5 214q0 131 -59.5 216.5t-180.5 85.5t-180.5 -85.5t-59.5 -216.5zM547 1198l139 295 h383l-264 -295h-258z" />
<glyph unicode="&#xf4;" horiz-adv-x="1368" d="M63 532q0 260 174.5 410t446.5 150t446.5 -149.5t174.5 -410.5q0 -258 -174.5 -407.5t-446.5 -149.5t-446.5 149.5t-174.5 407.5zM291 1198l231 295h332l223 -295h-256l-133 160l-141 -160h-256zM444 532q0 -129 59.5 -214t180.5 -85t180.5 85t59.5 214 q0 131 -59.5 216.5t-180.5 85.5t-180.5 -85.5t-59.5 -216.5z" />
<glyph unicode="&#xf5;" horiz-adv-x="1368" d="M63 532q0 260 174.5 410t446.5 150t446.5 -149.5t174.5 -410.5q0 -258 -174.5 -407.5t-446.5 -149.5t-446.5 149.5t-174.5 407.5zM285 1198q14 121 79.5 205t180.5 84q59 0 159.5 -37t133.5 -37q88 0 102 80h147q-14 -127 -79.5 -208t-184.5 -81q-57 0 -159.5 37 t-131.5 37q-82 0 -100 -80h-147zM444 532q0 -129 59.5 -214t180.5 -85t180.5 85t59.5 214q0 131 -59.5 216.5t-180.5 85.5t-180.5 -85.5t-59.5 -216.5z" />
<glyph unicode="&#xf6;" horiz-adv-x="1368" d="M63 532q0 260 174.5 410t446.5 150t446.5 -149.5t174.5 -410.5q0 -258 -174.5 -407.5t-446.5 -149.5t-446.5 149.5t-174.5 407.5zM305 1198v295h295v-295h-295zM444 532q0 -129 59.5 -214t180.5 -85t180.5 85t59.5 214q0 131 -59.5 216.5t-180.5 85.5t-180.5 -85.5 t-59.5 -216.5zM772 1198v295h295v-295h-295z" />
<glyph unicode="&#xf7;" horiz-adv-x="1228" d="M96 389v258h1037v-258h-1037zM422 92q0 78 56.5 134.5t134 56.5t134 -56.5t56.5 -134.5t-56.5 -134t-134 -56t-134 56t-56.5 134zM422 944q0 78 56.5 134.5t134 56.5t134 -56.5t56.5 -134.5t-56.5 -134t-134 -56t-134 56t-56.5 134z" />
<glyph unicode="&#xf8;" horiz-adv-x="1368" d="M63 532q0 260 174.5 410t446.5 150q197 0 342 -80l154 159l125 -118l-140 -146q139 -150 140 -375q0 -258 -174.5 -407.5t-446.5 -149.5q-193 0 -340 80l-154 -159l-124 118l139 144q-142 147 -142 374zM444 532q0 -61 13 -112l360 375q-55 39 -133 39 q-121 0 -180.5 -85.5t-59.5 -216.5zM553 272q51 -39 131 -39q121 0 180.5 85t59.5 214q0 57 -13 111z" />
<glyph unicode="&#xf9;" horiz-adv-x="1366" d="M115 401v666h368v-516q0 -268 170 -268q229 0 230 333v451h368v-1067h-336v197h-4q-106 -221 -389 -222q-205 0 -306 122t-101 304zM324 1493h383l139 -295h-258z" />
<glyph unicode="&#xfa;" horiz-adv-x="1366" d="M115 401v666h368v-516q0 -268 170 -268q229 0 230 333v451h368v-1067h-336v197h-4q-106 -221 -389 -222q-205 0 -306 122t-101 304zM545 1198l139 295h383l-264 -295h-258z" />
<glyph unicode="&#xfb;" horiz-adv-x="1366" d="M115 401v666h368v-516q0 -268 170 -268q229 0 230 333v451h368v-1067h-336v197h-4q-106 -221 -389 -222q-205 0 -306 122t-101 304zM289 1198l231 295h332l223 -295h-256l-133 160l-141 -160h-256z" />
<glyph unicode="&#xfc;" horiz-adv-x="1366" d="M115 401v666h368v-516q0 -268 170 -268q229 0 230 333v451h368v-1067h-336v197h-4q-106 -221 -389 -222q-205 0 -306 122t-101 304zM303 1198v295h295v-295h-295zM770 1198v295h295v-295h-295z" />
<glyph unicode="&#xfd;" d="M16 1067h398l229 -696h4l219 696h369l-391 -993q-92 -238 -137 -312q-125 -203 -351 -217h-34q-117 0 -230 25l25 280q68 -23 145 -22q68 0 117 39t70 108zM487 1198l140 295h383l-265 -295h-258z" />
<glyph unicode="&#xfe;" horiz-adv-x="1368" d="M106 -430v1966h371v-606h4q129 162 367 162q209 0 333 -164t124 -375q0 -248 -129 -413t-359 -165q-242 0 -338 175h-4v-580h-369zM475 530q0 -115 65.5 -193.5t159.5 -78.5q102 0 163 79t61 208q0 111 -59.5 187.5t-164.5 76.5q-100 0 -162.5 -79t-62.5 -200z" />
<glyph unicode="&#xff;" d="M16 1067h398l229 -696h4l219 696h369l-391 -993q-92 -238 -137 -312q-125 -203 -351 -217h-34q-117 0 -230 25l25 280q68 -23 145 -22q68 0 117 39t70 108zM246 1198v295h295v-295h-295zM713 1198v295h295v-295h-295z" />
<glyph unicode="&#x152;" horiz-adv-x="2048" d="M37 715q0 340 184.5 533.5t532.5 193.5q143 0 284 -6q33 0 90.5 -2t104.5 -3t88 -1h668v-271h-594v-295h555v-270h-549v-324h610v-270h-852q-98 0 -201 -6q-203 -6 -204 -6q-344 0 -530.5 195.5t-186.5 531.5zM430 715q0 -184 92 -314.5t269 -130.5q45 0 119.5 4.5 t97.5 4.5v872q-37 0 -123 4t-131 4q-182 0 -253 -120.5t-71 -323.5z" />
<glyph unicode="&#x153;" horiz-adv-x="2048" d="M55 532q0 268 166 414t414 146q145 0 246.5 -36t175.5 -126q143 162 397 162q143 0 249.5 -48.5t168 -133.5t91.5 -188.5t30 -227.5v-68h-738q29 -205 314 -205q174 0 325 82v-260q-170 -68 -391 -68q-309 0 -442 172q-127 -172 -438 -172q-250 0 -409 145.5t-159 411.5z M436 532q0 -127 57.5 -219t166 -92t166 92.5t57.5 218.5q0 129 -57.5 221.5t-166 92.5t-166 -92.5t-57.5 -221.5zM1251 635h410q0 100 -50 161.5t-155 61.5q-94 0 -146.5 -62.5t-58.5 -160.5z" />
<glyph unicode="&#x178;" horiz-adv-x="1478" d="M23 1430h438l280 -574l277 574h438l-524 -891v-539h-381v539zM360 1505v295h295v-295h-295zM827 1505v295h295v-295h-295z" />
<glyph unicode="&#x2c6;" horiz-adv-x="681" d="M-53 1198l231 295h332l223 -295h-256l-133 160l-141 -160h-256z" />
<glyph unicode="&#x2dc;" horiz-adv-x="681" d="M-59 1198q14 121 79.5 205t180.5 84q59 0 159.5 -37t133.5 -37q88 0 102 80h147q-14 -127 -79.5 -208t-184.5 -81q-57 0 -159.5 37t-131.5 37q-82 0 -100 -80h-147z" />
<glyph unicode="&#x2000;" horiz-adv-x="976" />
<glyph unicode="&#x2001;" horiz-adv-x="1953" />
<glyph unicode="&#x2002;" horiz-adv-x="976" />
<glyph unicode="&#x2003;" horiz-adv-x="1953" />
<glyph unicode="&#x2004;" horiz-adv-x="651" />
<glyph unicode="&#x2005;" horiz-adv-x="487" />
<glyph unicode="&#x2006;" horiz-adv-x="325" />
<glyph unicode="&#x2007;" horiz-adv-x="325" />
<glyph unicode="&#x2008;" horiz-adv-x="243" />
<glyph unicode="&#x2009;" horiz-adv-x="389" />
<glyph unicode="&#x200a;" horiz-adv-x="108" />
<glyph unicode="&#x2010;" horiz-adv-x="681" d="M63 416v270h555v-270h-555z" />
<glyph unicode="&#x2011;" horiz-adv-x="681" d="M63 416v270h555v-270h-555z" />
<glyph unicode="&#x2013;" horiz-adv-x="1024" d="M0 422v258h1024v-258h-1024z" />
<glyph unicode="&#x2014;" horiz-adv-x="2048" d="M0 422v258h2048v-258h-2048z" />
<glyph unicode="&#x2018;" horiz-adv-x="681" d="M100 874l201 556h281l-138 -556h-344z" />
<glyph unicode="&#x2019;" horiz-adv-x="681" d="M100 874l138 556h344l-201 -556h-281z" />
<glyph unicode="&#x201a;" horiz-adv-x="681" d="M100 -223l138 555h344l-201 -555h-281z" />
<glyph unicode="&#x201c;" d="M150 874l200 556h281l-137 -556h-344zM621 874l200 556h281l-137 -556h-344z" />
<glyph unicode="&#x201d;" d="M150 874l137 556h344l-201 -556h-280zM621 874l137 556h344l-201 -556h-280z" />
<glyph unicode="&#x201e;" d="M150 -223l137 555h346l-201 -555h-282zM618 -223l138 555h346l-201 -555h-283z" />
<glyph unicode="&#x2022;" horiz-adv-x="1024" d="M156 714.5q0 147.5 104.5 252t251.5 104.5t252.5 -104.5t105.5 -252t-105.5 -253t-252.5 -105.5t-251.5 105.5t-104.5 253z" />
<glyph unicode="&#x2026;" horiz-adv-x="2048" d="M170 0v332h344v-332h-344zM852 0v332h344v-332h-344zM1534 0v332h344v-332h-344z" />
<glyph unicode="&#x202f;" horiz-adv-x="389" />
<glyph unicode="&#x2039;" horiz-adv-x="681" d="M57 551l244 418h303l-225 -418l225 -418h-303z" />
<glyph unicode="&#x203a;" horiz-adv-x="681" d="M78 133l225 418l-225 418h303l244 -418l-244 -418h-303z" />
<glyph unicode="&#x205f;" horiz-adv-x="487" />
<glyph unicode="&#x20ac;" horiz-adv-x="1253" d="M4 502l35 141h158q-6 72 0 143h-193l35 142h180q61 242 257 384t448 142q193 0 366 -57l-67 -262q-94 41 -226 41q-127 0 -223 -66t-143 -182h540l-34 -142h-547q-10 -72 0 -143h512l-37 -141h-434q47 -113 144 -177.5t220 -64.5q127 0 228 41l12 -287q-127 -39 -301 -39 q-268 0 -463 136.5t-254 390.5h-213z" />
<glyph unicode="&#x2122;" horiz-adv-x="2048" d="M76 1245v185h704v-185h-241v-667h-222v667h-241zM977 578v852h315l183 -496l182 496h315v-852h-221v557h-4l-182 -557h-181l-182 557h-4v-557h-221z" />
</font>
</defs>
</svg>
